Strict Standards: Only variables should be passed by reference in /home/torgame/web/sexy-torrent.com/public_html/engine/modules/psxtorrent.php on line 567 Нигер смотрит под юбку Бранди,когда та надрачивает себе пизду,а её подруга дрочит и сосет негру хуй! Brandi Belle Presents-The Upskirt Perv » Скачать порно видео и фильмы через торрент
Жанры
Секс чат
» » Нигер смотрит под юбку Бранди,когда та надрачивает себе пизду,а её подруга дрочит и сосет негру хуй! Brandi Belle Presents-The Upskirt Perv 

Скачать порно Нигер смотрит под юбку Бранди,когда та надрачивает себе пизду,а её подруга дрочит и сосет негру хуй! Brandi Belle Presents-The Upskirt Perv

 Нигер смотрит под юбку Бранди,когда та надрачивает себе пизду,а её подруга дрочит и сосет негру хуй! Brandi Belle Presents-The Upskirt Perv Format : Windows Media File size : 294 MiB Duration : 26mn 21s Overall bit rate : 1 558 Kbps Maximum Overall bit rate : 1 549 Kbps Encoded date : UTC 2009-06-25 17:09:32.000 Writing application : Flip4Mac WMV Export Component for QuickTime (Mac) 2211 Video #2 ID : 2 Format : VC-1 Format profile : MP Codec ID : WMV3 Codec ID/Info : Windows Media Video 9 Codec ID/Hint : WMV3 Description of the codec : Windows Media Video V9 - 720 x 406, 29.97 fps, 1500 kbps (CBR) Duration : 26mn 19s Bit rate : 1 501 Kbps Width : 720 pixels Height : 406 pixels Display aspect ratio : 16:9 Frame rate : 29.970 fps Resolution : 24 bits Scan type : Progressive Bits/(Pixel*Frame) : 0.171 Stream size : 283 MiB (96%) Language : English (US) Audio #1 ID : 1 Format : WMA2 Codec ID : 161 Codec ID/Info : Windows Media Audio 2 Description of the codec : Windows Media Audio V9 Standard - 48 kbps, 44 kHz, 16 bit, Stereo (CBR) Duration : 26mn 21s Bit rate mode : Constant Bit rate : 48.0 Kbps Channel(s) : 2 channels Sampling rate : 44.1 KHz Resolution : 16 bits Stream size : 9.05 MiB (3%) Language : English (US) Качество: SATRip Формат: WMV Размер: 293.63 Мб



FB Twitter Mailry
Сиды:  137 
Пиры:  41 
Общий размер: 47,41 Kb
SHA Hash: a0ffaa048db611207cd143a7f368a0b86e80aca0

Список файлов (1)


 Ca Baise Au Sauna Ca Baise Au Sauna
Год производства: 2012 г. Страна: FR Жанр: anal,oral,DP Продолжительность: 102 min Язык: Французский Режиссер: Luka Студия: Marc Dorcel В ролях: Daphn?e Lecerf , Sabrina Sweet , Anksa Kara et Tamara Val Доп. информация:

 Only Big Breasts Lady SOE-692 Only Big Breasts Lady SOE-692
DVD Date...: 12/12/2011 Release Date...: 12/27/2011 Source.....: DVD5 NTSC(16:9) Video Codec....: XviD Aspect Ratio: 1.800 : 1 Resolution.....: 576 x 320 Frame Rate..: 29.970 FPS Video Bitrate..: 1011Kbps avg Audio Codec.: AC3 Audio Bitrate..:

 kanojo to ikenai kankei kanojo to ikenai kankei
Год производства: 2011 г. Жанр: Straight, Oral, Big tits, Masturbation Продолжительность: Цензура: Есть во всех файлах Язык: Японский Озвучка: Оригинальная Студия: SCAPE TRON Описание: Тёлочка трахается со своим поклонником Качество видео: DLversion

 Scufita Rosie - Romanian XXX Scufita Rosie - Romanian XXX
Video ID : 0 Format : MPEG-4 Visual Format profile : Advanced Simple@L5 Format settings, BVOP : 1 Format settings, QPel : No Format settings, GMC : No warppoints Format settings, Matrix : Custom Codec ID : XVID Codec ID/Hint : XviD Duration : 1h

 3D Sex Villa - pirate ship / Пиратский корабль  Other 3D Sex Villa - pirate ship / Пиратский корабль Other
Год производства: 2010 г. Студия: thriXXX Жанр: 3DCG, Masturbation, Oral, Straght, Anal sex Продолжительность: 11:32 Ролик сделанный на основе игры 3д секс виллы. Пиратский корабль, то что не показывают в пиратских фильмах. Качество видео: GameRip



ТОП 5
Домашняя съемка папа с дочкой


Мамашка отморозок трахнула парнишку


Natasha and Miss Brazil (2010) SATRip


Папик оттрахал дочу на её день рождение


Sex mit WANESSA BISMARCK (2009) DVDRip



Интересно
Рекомендуем порно видео чат девушек, пар и трансов, бесплатно и без регистрации.


Все используемые аудиовизуальные материалы, ссылки на которые размещены на сайте, являются собственностью их изготовителя (владельца прав) и охраняются Законом РФ "Об авторском праве и смежных правах", а также международными правовыми конвенциями.
Вы можете использовать эти материалы только в том в случае, если использование производится с ознакомительными целями. Эти материалы предназначены только для ознакомления - для прочих целей Вы должны купить лицензионную запись.
Используемый формат кодирования аудиовизуальных материалов не может заменить качество оригинальных лицензионных записей. Все записи представлены в заведомо заниженном качестве. Eсли Вы оставляете у себя в каком-либо виде эти аудиовизуальные материалы, но не приобретаете соответствующую лицензионную запись - Вы нарушаете законы об Интеллектуальной собственности и Авторском праве, что может повлечь за собой преследование по соответствующим статьям существующего законодательства.
Реклама: